Неспящие в Сиэтле скачать

      Комментарии к записи Неспящие в Сиэтле скачать отключены

Уважаемый гость, на данной странице Вам доступен материал по теме: Неспящие в Сиэтле скачать. Скачивание возможно на компьютер и телефон через торрент, а также сервер загрузок по ссылке ниже. Рекомендуем также другие статьи из категории «Торренты».

Неспящие в Сиэтле скачать.rar
Закачек 3469
Средняя скорость 1979 Kb/s

Неспящие в Сиэтле скачать

Скачать торрент Неспящие в Сиэтле бесплатно

Не забывайте оставаться на раздаче после того, как скачали торрент! Помогите скачать и другим — поддержите свободный обмен!

Скачать похожие торренты

Ресурс N-TORRENTS.RU не содержит никакой нелегальной информации. На сервере хранятся только торрент-файлы, содержащие в себе хеш-суммы файлов, свободно доступных в Сети.

Владельцы данного ресурса не несут ответственности за действия пользователей, размещающих здесь информацию, охраняемую авторским правом. Если Вы — обладатель авторских прав на материал, Вы можете связаться с нами через форму обратной связи и прекратить размещение его копий на всех страницах сайта. Мы оставляем за собой право потребовать у вас правоустанавливающие документы. Максимальное время рассмотрения жалобы — 48 часов с момента получения письма. Данный ресурс полностью анонимный: IP-адреса и действия пользователей не сохраняются.

Скачать фильм «Неспящие в Сиэттле» через торрент бесплатно

72 kbps
Субтитры: русские, английские

2138 kbps avg, 0.33 bit/pixel
Аудио #1: 48 kHz, AC3 Dolby Digital, 2/0 (L,R),

192.00 kbps avg
Аудио #2: 48 kHz, AC3 Dolby Digital, 2/0 (L,R),

192.00 kbps avg
Аудио #3: 48 kHz, AC3 Dolby Digital, 3/2 (L,C,R,l,r) + LFE ch,

448.00 kbps avg
Аудио #4: 48 kHz, AC3 Dolby Digital, 2/0 (L,R),

224.00 kbps avg(отдельно, http)
Аудио #5: 48 kHz, AC3 Dolby Digital, 2/0 (L,R),

224.00 kbps avg(отдельно, http)
Аудио #6: 48 kHz, AC3 Dolby Digital, 2/0 (L,R),

224.00 kbps avg(отдельно, http)
Аудио #7: 48 kHz, AC3 Dolby Digital, 3/2 (L,C,R,l,r) + LFE ch,

448.00 kbps avg(отдельно, http)

192.00 kbps (Русский)
Аудио #2: 48 kHz, AC3 Dolby Digital, 2 ch,

128.00 kbps (Английский)
Субтитры: Русские, Английские (отключаемые)
Видео: Идентификатор : 1 Формат : AVC Формат/Информация : Advanced Video Codec Профиль формата : High@L4.1 Параметр CABAC формата : Да Параметр ReFrames формата : 12 кадров Идентификатор кодека : V_MPEG4/ISO/AVC Продолжительность : 1 ч. 45 м. Битрейт : 1562 Кбит/сек Ширина : 1024 пикселя Высота : 560 пикселей Соотношение сторон : 1,85:1 Режим частоты кадров : Постоянный Частота кадров : 23,976 кадра/сек Цветовое пространство : YUV Субдискретизация насыщенности : 4:2:0 Битовая глубина : 8 бит Тип развёртки : Прогрессивная Бит/(Пиксели*Кадры) : 0.114 Размер потока : 1,12 Гбайт (78%) Библиотека кодирования : x264 core 133 r2334 a3ac64b Настройки программы : cabac=1 / ref=12 / deblock=1:-3:-3 / analyse=0x3:0x113 / me=umh / subme=10 / psy=1 / psy_rd=1.10:0.07 / mixed_ref=1 / me_range=32 / chroma_me=1 / trellis=2 / 8x8dct=1 / cqm=0 / deadzone=21,11 / fast_pskip=0 / chroma_qp_offset=-3 / threads=4 / lookahead_threads=1 / sliced_threads=0 / nr=0 / decimate=1 / interlaced=0 / bluray_compat=0 / constrained_intra=0 / bframes=9 / b_pyramid=2 / b_adapt=2 / b_bias=0 / direct=3 / weightb=1 / open_gop=0 / weightp=0 / keyint=240 / keyint_min=22 / scenecut=40 / intra_refresh=0 / rc_lookahead=40 / rc=2pass / mbtree=0 / bitrate=1562 / ratetol=1.0 / qcomp=0.60 / qpmin=0 / qpmax=69 / qpstep=4 / cplxblur=20.0 / qblur=0.5 / vbv_maxrate=62500 / vbv_bufsize=78125 / nal_hrd=none / ip_ratio=1.40 / pb_ratio=1.30 / aq=2:1.00 Default : Да Forced : Нет
Аудио #1: Идентификатор : 2 Формат : AC-3 Формат/Информация : Audio Coding 3 Профиль формата : Dolby Digital Расширение режима : CM (complete main) Параметр Endianness формата : Big Идентификатор кодека : A_AC3 Продолжительность : 1 ч. 45 м. Вид битрейта : Постоянный Битрейт : 192 Кбит/сек Каналы : 2 канала Расположение каналов : Front: L R Частота : 48,0 КГц Битовая глубина : 16 бит Метод сжатия : С потерями Размер потока : 144 Мбайт (10%) Заголовок : Дублированный Язык : Russian Default : Да Forced : Нет
Аудио #2: Идентификатор : 3 Формат : AC-3 Формат/Информация : Audio Coding 3 Расширение режима : CM (complete main) Параметр Endianness формата : Big Идентификатор кодека : A_AC3 Продолжительность : 1 ч. 45 м. Вид битрейта : Постоянный Битрейт : 192 Кбит/сек Каналы : 2 канала Расположение каналов : Front: L R Частота : 48,0 КГц Битовая глубина : 16 бит Метод сжатия : С потерями Размер потока : 144 Мбайт (10%) Заголовок : Оригинал Язык : English Default : Нет Forced : Нет

Скачать торрент Неспящие в Сиэтле — Sleepless in Seattle

2138 kbps avg, 0.33 bit/pixel
Аудио: Аудио #1- 48 kHz, AC3 Dolby Digital, 2/0 (L,R),

192.00 kbps avg brАудио #2- 48 kHz, AC3 Dolby Digital, 2/0 (L,R),

192.00 kbps avg brАудио #3- 48 kHz, AC3 Dolby Digital, 3/2 (L,C,R,l,r) + LFE ch,

448.00 kbps avg
Перевод: Проф. (полное дублирование)
Субтитры: Русские, Английские (внешние srt-)
Доп. информация : Перевод- Профессиональный (полное дублирование) + Профессиональный (многоголосый, закадровый) + Оригинальная звуковая дорожка br Субтитры- Русские, Английские (внешние srt-)br/

2138 kbps avg, 0.33 bit/pixel
Аудио:
Перевод: Проф. (полное дублирование)
Субтитры: Русские
Доп. информация : Автор раздачи- Skywalker007 brПеревод- Дублированный + Профессиональный, многоголосый + Авторский, одноголосый (Алексей Михалев) brСубтитры- Русскиеbr/

192.00 kbps (Русский)
Перевод: Проф. (полное дублирование)
Субтитры: Русские, Английские (отключаемые)
Доп. информация : Субтитры- Русские, Английские (отключаемые)br/


Статьи по теме