Иллюзия Убийства 2 скачать

      Комментарии к записи Иллюзия Убийства 2 скачать отключены

Уважаемый гость, на данной странице Вам доступен материал по теме: Иллюзия Убийства 2 скачать. Скачивание возможно на компьютер и телефон через торрент, а также сервер загрузок по ссылке ниже. Рекомендуем также другие статьи из категории «Бланки».

Иллюзия Убийства 2 скачать.rar
Закачек 815
Средняя скорость 3373 Kb/s

Иллюзия Убийства 2 скачать

Скачать фильм «Иллюзия убийства 2» через торрент бесплатно

826 kbps avg, 0.16 bit/pixel
Аудио: 48 kHz, MPEG Layer 3, 2 ch,

1708 kbps avg, 0.26 bit/pixel
Аудио: 48 kHz, AC3 Dolby Digital, 2/0 (L,R) ch,

2448 kbps avg, 0.172 bit/pixel
Аудио: 48 kHz, Dolby Digital AC3 2.0, 192 kbps DUB
Аудио: 48 kHz, Dolby Digital AC3 2.0, 192 kbps MVO
Аудио: 48 kHz, Dolby Digital AC3 2.0, 192 kbps Английский
Субтитры: SoftSub (srt)
Видео: Идентификатор : 1 Формат : AVC Формат/Информация : Advanced Video Codec Профиль формата : High@L4.1 Параметр CABAC формата : Да Параметр ReFrames формата : 8 кадров Идентификатор кодека : V_MPEG4/ISO/AVC Продолжительность : 1 ч. 43 м. Битрейт : 2448 Кбит/сек Ширина : 1024 пикселя Высота : 556 пикселей Соотношение сторон : 1,85:1 Режим частоты кадров : Постоянный Частота кадров : 25,000 кадров/сек Цветовое пространство : YUV Субдискретизация насыщенности : 4:2:0 Битовая глубина : 8 бит Тип развёртки : Прогрессивная Бит/(Пиксели*Кадры) : 0.172 Размер потока : 1,73 Гбайт (79%) Заголовок : Источник HDTV 1080i Библиотека кодирования : x264 core 138 r2356 a1d3d17 Настройки программы : cabac=1 / ref=8 / deblock=1:-3:-2 / analyse=0x3:0x113 / me=umh / subme=10 / psy=1 / psy_rd=1.00:0.05 / mixed_ref=1 / me_range=32 / chroma_me=1 / trellis=2 / 8x8dct=1 / cqm=0 / deadzone=21,11 / fast_pskip=1 / chroma_qp_offset=-3 / threads=3 / lookahead_threads=1 / sliced_threads=0 / nr=0 / decimate=0 / interlaced=0 / bluray_compat=0 / constrained_intra=0 / bframes=8 / b_pyramid=2 / b_adapt=2 / b_bias=0 / direct=3 / weightb=1 / open_gop=0 / weightp=2 / keyint=250 / keyint_min=25 / scenecut=40 / intra_refresh=0 / rc_lookahead=40 / rc=2pass / mbtree=1 / bitrate=2448 / ratetol=1.0 / qcomp=0.60 / qpmin=0 / qpmax=69 / qpstep=4 / cplxblur=20.0 / qblur=0.5 / ip_ratio=1.40 / aq=1:1.00 Язык : English Default : Да Forced : Нет
Аудио #1: Идентификатор : 2 Формат : AC-3 Формат/Информация : Audio Coding 3 Расширение режима : CM (complete main) Параметр Endianness формата : Big Идентификатор кодека : A_AC3 Продолжительность : 1 ч. 43 м. Вид битрейта : Постоянный Битрейт : 192 Кбит/сек Каналы : 2 канала Расположение каналов : Front: L R Частота : 48,0 КГц Битовая глубина : 16 бит Метод сжатия : С потерями Задержка видео : 43 мс. Размер потока : 142 Мбайт (6%) Заголовок : Источник HDTV 1080i Dolby Digital 2,0 192 kbps DUB Язык : Russian Default : Да Forced : Нет
Аудио #2: Идентификатор : 3 Формат : AC-3 Формат/Информация : Audio Coding 3 Расширение режима : CM (complete main) Параметр Endianness формата : Big Идентификатор кодека : A_AC3 Продолжительность : 1 ч. 43 м. Вид битрейта : Постоянный Битрейт : 192 Кбит/сек Каналы : 2 канала Расположение каналов : Front: L R Частота : 48,0 КГц Битовая глубина : 16 бит Метод сжатия : С потерями Размер потока : 142 Мбайт (6%) Заголовок : Источник HDTV 1080i Dolby Digital 2,0 192 kbps MVO Язык : Russian Default : Нет Forced : Нет
Аудио #3: Идентификатор : 4 Формат : AC-3 Формат/Информация : Audio Coding 3 Профиль формата : Dolby Digital Расширение режима : CM (complete main) Параметр Endianness формата : Big Идентификатор кодека : A_AC3 Продолжительность : 1 ч. 43 м. Вид битрейта : Постоянный Битрейт : 192 Кбит/сек Каналы : 2 канала Расположение каналов : Front: L R Частота : 48,0 КГц Битовая глубина : 16 бит Метод сжатия : С потерями Размер потока : 142 Мбайт (6%) Заголовок : Источник HDTV 1080i Dolby Digital 2,0 192 kbps Язык : English Default : Нет Forced : Нет

870 kbps avg, 0.141 bit/pixel
Аудио: 48 kHz, MP3 2.0, 128 kbps
Видео: Идентификатор : 0 Формат : MPEG-4 Visual Профиль формата : Advanced Simple@L5 Параметр BVOP формата : 1 Параметр QPel формата : Нет Параметр GMC формата : Без точки перехода Параметр матрицы формата : Выборочная Идентификатор кодека : XVID Идентификатор кодека/Подсказка : XviD Продолжительность : 1 ч. 43 м. Битрейт : 870 Кбит/сек Ширина : 672 пикселя Высота : 368 пикселей Соотношение сторон : 1,85:1 Частота кадров : 25,000 кадров/сек Цветовое пространство : YUV Субдискретизация насыщенности : 4:2:0 Битовая глубина : 8 бит Тип развёртки : Прогрессивная Метод сжатия : С потерями Бит/(Пиксели*Кадры) : 0.141 Размер потока : 644 Мбайт (86%) Библиотека кодирования : XviD 73
Аудио: Идентификатор : 1 Формат : MPEG Audio Версия формата : Version 1 Профиль формата : Layer 3 Идентификатор кодека : 55 Идентификатор кодека/Подсказка : MP3 Продолжительность : 1 ч. 43 м. Вид битрейта : Постоянный Битрейт : 128 Кбит/сек Каналы : 2 канала Частота : 48,0 КГц Метод сжатия : С потерями Размер потока : 94,7 Мбайт (13%) Выравнивание : Соединение по промежуткам Продолжительность промежутка : 40 мс. (1,00 видеокадр) Время предзагрузки промежутка : 504 мс. Библиотека кодирования : LAME3.99r Настройки программы : -m s -V 4 -q 2 -lowpass 17 -b 128

1231 kbps avg, 0.207 bit/pixel
Аудио: 48 kHz, Dolby Digital AC3 2.0, 192 kbps DUB
Аудио: 48 kHz, Dolby Digital AC3 2.0, 192 kbps MVO
Аудио: 48 kHz, Dolby Digital AC3 2.0, 192 kbps Английский
Видео: Идентификатор : 0 Формат : MPEG-4 Visual Профиль формата : Advanced Simple@L5 Параметр BVOP формата : 1 Параметр QPel формата : Нет Параметр GMC формата : Без точки перехода Параметр матрицы формата : Выборочная Идентификатор кодека : XVID Идентификатор кодека/Подсказка : XviD Продолжительность : 1 ч. 43 м. Битрейт : 1431 Кбит/сек Ширина : 720 пикселей Высота : 384 пикселя Соотношение сторон : 1,85:1 Частота кадров : 25,000 кадров/сек Цветовое пространство : YUV Субдискретизация насыщенности : 4:2:0 Битовая глубина : 8 бит Тип развёртки : Прогрессивная Метод сжатия : С потерями Бит/(Пиксели*Кадры) : 0.207 Размер потока : 1,03 Гбайт (71%) Библиотека кодирования : XviD 73
Аудио #1: Идентификатор : 1 Формат : AC-3 Формат/Информация : Audio Coding 3 Расширение режима : CM (complete main) Параметр Endianness формата : Big Идентификатор кодека : 2000 Продолжительность : 1 ч. 43 м. Вид битрейта : Постоянный Битрейт : 192 Кбит/сек Каналы : 2 канала Расположение каналов : Front: L R Частота : 48,0 КГц Битовая глубина : 16 бит Метод сжатия : С потерями Задержка видео : 43 мс. Размер потока : 142 Мбайт (9%) Выравнивание : Разделение по промежуткам Продолжительность промежутка : 40 мс. (1,00 видеокадр) Время предзагрузки промежутка : 500 мс.
Аудио #2: Идентификатор : 2 Формат : AC-3 Формат/Информация : Audio Coding 3 Расширение режима : CM (complete main) Параметр Endianness формата : Big Идентификатор кодека : 2000 Продолжительность : 1 ч. 43 м. Вид битрейта : Постоянный Битрейт : 192 Кбит/сек Каналы : 2 канала Расположение каналов : Front: L R Частота : 48,0 КГц Битовая глубина : 16 бит Метод сжатия : С потерями Размер потока : 142 Мбайт (9%) Выравнивание : Разделение по промежуткам Продолжительность промежутка : 40 мс. (1,00 видеокадр) Время предзагрузки промежутка : 500 мс.
Аудио #3: Идентификатор : 3 Формат : AC-3 Формат/Информация : Audio Coding 3 Профиль формата : Dolby Digital Расширение режима : CM (complete main) Параметр Endianness формата : Big Идентификатор кодека : 2000 Продолжительность : 1 ч. 43 м. Вид битрейта : Постоянный Битрейт : 192 Кбит/сек Каналы : 2 канала Расположение каналов : Front: L R Частота : 48,0 КГц Битовая глубина : 16 бит Метод сжатия : С потерями Размер потока : 142 Мбайт (9%) Выравнивание : Разделение по промежуткам Продолжительность промежутка : 40 мс. (1,00 видеокадр) Время предзагрузки промежутка : 500 мс

192.00 kbps avg |DUB
Аудио 2: 48 kHz, AC3 Dolby Digital, 2/0 (L,R) ch,

192.00 kbps avg |MVO
Аудио 3: 48 kHz, AC3 Dolby Digital, 2/0 (L,R) ch,

384.00 kbps avg |ENG
Субтитры: русские

870 kbps avg, 0.141 bit/pixel
Аудио: 48 kHz, MP3 2.0, 128 kbps

1708 kbps avg, 0.26 bit/pixel
Аудио: 48 kHz, AC3 Dolby Digital, 2/0 (L,R) ch,

2448 kbps avg, 0.172 bit/pixel
Аудио: Аудио1: 48 kHz, Dolby Digital AC3 2.0, 192 kbps DUB
Аудио2: 48 kHz, Dolby Digital AC3 2.0, 192 kbps MVO
Аудио3: 48 kHz, Dolby Digital AC3 2.0, 192 kbps Английский

192.00 kbps avg | DUB
Аудио 2: 48 kHz, AC3 Dolby Digital, 2/0 (L,R) ch,

192.00 kbps avg | MVO
Аудио 3: 48 kHz, AC3 Dolby Digital, 2/0 (L,R) ch,

1708 kbps avg, 0.26 bit/pixel
Аудио: 48 kHz, AC3 Dolby Digital, 2/0 (L,R) ch,

Скачать торрент Иллюзия убийства 2 бесплатно

Не забывайте оставаться на раздаче после того, как скачали торрент! Помогите скачать и другим — поддержите свободный обмен!

Скачать похожие торренты

Ресурс N-TORRENTS.RU не содержит никакой нелегальной информации. На сервере хранятся только торрент-файлы, содержащие в себе хеш-суммы файлов, свободно доступных в Сети.

Владельцы данного ресурса не несут ответственности за действия пользователей, размещающих здесь информацию, охраняемую авторским правом. Если Вы — обладатель авторских прав на материал, Вы можете связаться с нами через форму обратной связи и прекратить размещение его копий на всех страницах сайта. Мы оставляем за собой право потребовать у вас правоустанавливающие документы. Максимальное время рассмотрения жалобы — 48 часов с момента получения письма. Данный ресурс полностью анонимный: IP-адреса и действия пользователей не сохраняются.


Статьи по теме