Без Компромиссов 2011 скачать

      Комментарии к записи Без Компромиссов 2011 скачать отключены

Уважаемый гость, на данной странице Вам доступен материал по теме: Без Компромиссов 2011 скачать. Скачивание возможно на компьютер и телефон через торрент, а также сервер загрузок по ссылке ниже. Рекомендуем также другие статьи из категории «Торренты».

Без Компромиссов 2011 скачать.rar
Закачек 3478
Средняя скорость 3179 Kb/s

Без Компромиссов 2011 скачать

Скачать фильм «Без компромиссов» через торрент бесплатно

945 kbps avg, 0.12 bit/pixel
Звук: 48 kHz, Advanced Audio Codec, 2 ch,

128.00 kbps avg
Субтитры: Английские [полные, UTF-8]

1593 kbps avg, 0.30 bit/pixel
Аудио: 48 kHz, AC3 Dolby Digital, 3/2 (L,C,R,l,r) + LFE ch,

1751 kbps avg, 0.33 bit/pixel
Аудио #1: 48 kHz, AC3 Dolby Digital, 3/2 (L,C,R,l,r) + LFE ch,

384.00 kbps avg (RUS)DUB R5
Аудио #2: 48 kHz, AC3 Dolby Digital, 3/2 (L,C,R,l,r) + LFE ch,

384.00 kbps avg (RUS)AVO.ZAMEZ.CENSORED
Аудио #3: 48 kHz, AC3 Dolby Digital, 3/2 (L,C,R,l,r) + LFE ch,

384.00 kbps avg (RUS)AVO.ZAMEZ.UNCENSORED
Аудио #4: 48 kHz, AC3 Dolby Digital, 3/2 (L,C,R,l,r) + LFE ch,

384.00 kbps avg (ENG)(отдельно, http)

5801 kbps
Аудио #1: Russian: 48 kHz, AC3 Dolby Digital, 3/2 (L,C,R,l,r) + LFE ch,

448 kbps|Дубляж, DVD R5|
Аудио #2: English: 48 kHz, AC3 Dolby Digital, 3/2 (L,C,R,l,r) + LFE ch,

640 kbps
Субтитры: русские (subs.com.ru: сленг и матерок), английские

512 kbps avg
Звук: 48000 Hz, AAC,

64.00 kbps avg
Субтитры: нет

5510 kb/s
Видео: Идентификатор : 224 (0xE0) Формат : MPEG Video Версия формата : Version 2 Профиль формата : Main@Main Параметр BVOP формата : Да Параметр матрицы формата : Выборочная Продолжительность : 21 м. Вид битрейта : Переменный Битрейт : 5510 Кбит/сек Максимальный битрейт : 8904 Кбит/сек Ширина : 720 пикс. Высота : 576 пикс. Соотношение сторон : 16:9 Частота кадров : 25,000 кадр/сек Стандарт вещания : PAL Цветовое пространство : YUV Подвыборка цветности : 4:2:0 Битовая глубина : 8 бит Тип развёртки : Прогрессивная Порядок развёртки : Нижнее поле первое Метод сжатия : С потерями Бит/(Пиксели*Кадры) : 0.531 Размер потока : 863 Мбайт (84%)
Аудио #1: Идентификатор : 189 (0xBD)-128 (0x80) Формат : AC-3 Формат/Информация : Audio Coding 3 Расширение режима : CM (complete main) Режим смешивания : DVD-Video Продолжительность : 21 м. Вид битрейта : Постоянный Битрейт : 448 Кбит/сек Каналы : 6 каналов Расположение каналов : Front: L C R, Side: L R, LFE Частота : 48,0 КГц Битовая глубина : 16 бит Метод сжатия : С потерями Размер потока : 70,2 Мбайт (7%)
Аудио #2: Идентификатор : 189 (0xBD)-129 (0x81) Формат : AC-3 Формат/Информация : Audio Coding 3 Расширение режима : CM (complete main) Режим смешивания : DVD-Video Продолжительность : 21 м. Вид битрейта : Постоянный Битрейт : 448 Кбит/сек Каналы : 6 каналов Расположение каналов : Front: L C R, Side: L R, LFE Частота : 48,0 КГц Битовая глубина : 16 бит Метод сжатия : С потерями Размер потока : 70,2 Мбайт (7%)

5429 kbps, 0.325 bit/pix
Аудио 1: 48 kHz, AC3, 3/2 (L,C,R,l,r) + LFE ch,

384.00 kbps avg | Дубляж
Аудио 2: 48 kHz, AC3, 3/2 (L,C,R,l,r) + LFE ch,

640.00 kbps avg | Оригинал
Субтитры: Английские (full, SDH), Испанские


Статьи по теме